FAQFAQ   RechercherRechercher   Liste des MembresListe des Membres   Groupes d'utilisateursGroupes d'utilisateurs   S'enregistrerS'enregistrer 
 ProfilProfil   Se connecter pour vérifier ses messages privésSe connecter pour vérifier ses messages privés   ConnexionConnexion 
Qu'est-ce que vous écoutez en ce moment ?
Aller à la page Précédente  1, 2, 3 ... 137, 138, 139
 
Poster un nouveau sujet   Répondre au sujet    www.apinkdream.org Index du Forum -> Club America
Voir le sujet précédent :: Voir le sujet suivant  
Auteur Message
Fabien G
Kiss Me Kiss Me Kiss Me
Kiss Me Kiss Me Kiss Me


Inscrit le: 28 Jan 2008
Messages: 2128

MessagePosté le: Ven Oct 26, 2018 12:46    Sujet du message: Répondre en citant

https://www.youtube.com/watch?v=bhPZmO48mr4
Revenir en haut de page
Voir le profil de l'utilisateur Envoyer un message privé
D-WAVE
Pornography
Pornography


Inscrit le: 18 Déc 2013
Messages: 357

MessagePosté le: Dim Oct 28, 2018 23:40    Sujet du message: Répondre en citant

Je regarde et j'écoute avec délectation la Sine Wave :
https://www.youtube.com/watch?v=iYYRH4apXDo
Revenir en haut de page
Voir le profil de l'utilisateur Envoyer un message privé
D-WAVE
Pornography
Pornography


Inscrit le: 18 Déc 2013
Messages: 357

MessagePosté le: Lun Oct 29, 2018 13:02    Sujet du message: Répondre en citant

Mixed Up en 24 bit ici : ( à vérifier )

http://store.acousticsounds.com/d/135825/The_Cure-Mixed_Up-FLAC_44kHz24bit_Download
Revenir en haut de page
Voir le profil de l'utilisateur Envoyer un message privé
D-WAVE
Pornography
Pornography


Inscrit le: 18 Déc 2013
Messages: 357

MessagePosté le: Mer Nov 07, 2018 12:24    Sujet du message: Répondre en citant

https://store.acousticsounds.com/index.cfm

À l'heure actuelle, nous ne pouvons pas permettre aux clients situés en dehors des États-Unis d'acheter des produits numériques

Twisted Evil Twisted Evil Twisted Evil Twisted Evil Twisted Evil Twisted Evil Twisted Evil

la version Mono d'Axis: Bold as Love n'est plus dispo Twisted Evil Twisted Evil
Revenir en haut de page
Voir le profil de l'utilisateur Envoyer un message privé
D-WAVE
Pornography
Pornography


Inscrit le: 18 Déc 2013
Messages: 357

MessagePosté le: Dim Nov 18, 2018 19:42    Sujet du message: Répondre en citant

Jimi Hendrix Experience - Electric Ladyland

24 bit / 48 Khz Master Tape (1st copie) Reel-To-Reel, 7 1/2 (1968)
Produit par Jimi Hendrix.


Analyzed: The Jimi Hendrix Experience / Electric Ladyland
--------------------------------------------------------------------------------

DR Peak RMS Duration Track
--------------------------------------------------------------------------------
DR9 -4.30 dB -17.53 dB 1:21 01-... And The Gods Made Love
DR11 -2.37 dB -15.86 dB 2:12 02-Have You Ever Been (To Electric Ladyland)
DR10 -1.58 dB -14.14 dB 2:27 03-Crosstown Traffic
DR10 -0.33 dB -14.06 dB 15:00 04-Voodoo Chile
DR10 -2.12 dB -14.47 dB 2:50 05-Little Miss Strange
DR10 -2.26 dB -14.57 dB 3:27 06-Long Hot Summer Night
DR10 -2.47 dB -14.71 dB 4:09 07-Come On (Part I)
DR11 -2.04 dB -15.19 dB 3:43 08-Gypsy Eyes
DR9 -2.17 dB -13.77 dB 3:39 09-Burning Of The Midnight Lamp
DR11 -1.61 dB -15.81 dB 3:42 10-Rainy Day, Dream Away
DR12 -1.70 dB -17.39 dB 13:40 11-1983....(A Merman I Should Turn To Be)
DR12 -2.00 dB -21.83 dB 1:02 12-Moon, Turn The Tides....Gently Gently Away
DR9 -1.29 dB -12.71 dB 4:25 13-Still Raining, Still Dreaming
DR10 -1.31 dB -13.64 dB 4:33 14-House Burning Down
DR10 -1.73 dB -13.63 dB 3:59 15-All Along The Watchtower
DR9 -1.80 dB -13.41 dB 5:15 16-Voodoo Child (Slight Return)
--------------------------------------------------------------------------------

Number of tracks: 16
Official DR value: DR10

Samplerate: 48000 Hz
Channels: 2
Bits per sample: 24
Bitrate: 1675 kbps
Codec: FLAC

VS

24 bit 96 Khz : 50th Anniversary Deluxe Edition 2018.
http://dr.loudness-war.info/album/view/154479

Je vois bien un limiteur à -3 Db.

il y a pour moi un très gros problème de vitesse...... (Vitesse, Tonalité, Durée...

le Reel-to-Reel est bien comme dans ma mémoire.

Pour le son 3D ici : impossible de tricher en multitracks.(la bonne vitesse ?)
http://dr.loudness-war.info/album/view/154480

J'utilise bien un DAC à échelle (R-2R) comme Bernie Grundman.

Peut être que si j'utilise le même logiciel de lecture.......... (ASIO)

en analayse.............. Cool Cool Cool Wink
Revenir en haut de page
Voir le profil de l'utilisateur Envoyer un message privé
D-WAVE
Pornography
Pornography


Inscrit le: 18 Déc 2013
Messages: 357

MessagePosté le: Dim Nov 18, 2018 21:32    Sujet du message: Répondre en citant

Voir de très près "Oumuamua" en 2017 est incroyable.

are you experienced ?

la taille est un plus grand qu'un avion, de forme octogonale sur l'avant.

Wink


j'étais certainement dans une autre dimension entre réalité et rêve..

un corps céleste suspendu au desus de ma tête, dans une rue étroite en plein jour.

"Fascination Street"
Revenir en haut de page
Voir le profil de l'utilisateur Envoyer un message privé
wish
Disintegration
Disintegration


Inscrit le: 13 Mar 2008
Messages: 2630

MessagePosté le: Lun Nov 19, 2018 19:28    Sujet du message: Répondre en citant

Muse cheers
Revenir en haut de page
Voir le profil de l'utilisateur Envoyer un message privé
D-WAVE
Pornography
Pornography


Inscrit le: 18 Déc 2013
Messages: 357

MessagePosté le: Mer Nov 21, 2018 00:31    Sujet du message: Répondre en citant

Petite anecdote, Jimi Hendrix n'a pas aimé le rendu de son travail des effets 3D sur son album Electric Ladyland sur vinyle..

http://hendrix.guide.pagesperso-orange.fr/ladyland.htm

que la force soit avec toi petit poussin.

l'invisible.

https://youtu.be/1yroVMcGlOA?t=2645

la version MCA est numérique sur vinyl.............. Wink
Revenir en haut de page
Voir le profil de l'utilisateur Envoyer un message privé
D-WAVE
Pornography
Pornography


Inscrit le: 18 Déc 2013
Messages: 357

MessagePosté le: Mar Nov 27, 2018 23:08    Sujet du message: Répondre en citant

http://dr.loudness-war.info/album/view/154480

la claque sismique en 5.1

sans limiteur numérique.

Wink

le meilleur son en 2018.
"5.1 mix by Eddie Kramer from the original analogue multitracks"
Je confirme.

Cool Cool Cool
Revenir en haut de page
Voir le profil de l'utilisateur Envoyer un message privé
Montrer les messages depuis:   
Poster un nouveau sujet   Répondre au sujet    www.apinkdream.org Index du Forum -> Club America Toutes les heures sont au format GMT + 1 Heure
Aller à la page Précédente  1, 2, 3 ... 137, 138, 139
Page 139 sur 139

 
Sauter vers:  
Vous ne pouvez pas poster de nouveaux sujets dans ce forum
Vous ne pouvez pas répondre aux sujets dans ce forum
Vous ne pouvez pas éditer vos messages dans ce forum
Vous ne pouvez pas supprimer vos messages dans ce forum
Vous ne pouvez pas voter dans les sondages de ce forum


Pour nous envoyer vos news : contact@apinkdream.org

Graphisme : Julien Bremard - Dev : Pierre Bremard